• Welcome to TechPowerUp Forums, Guest! Please check out our forum guidelines for info related to our community.

Question for ReLIVE / VCE users

Joined
Oct 2, 2011
Messages
33 (0.01/day)
Likes
7
System Name Custom build
Processor Core i7 6700k
Motherboard ASUS Z170M
Cooling Noctua NH-D14
Memory DDR4 2133 4GBx2
Video Card(s) EVGA 980Ti CLASSIFIED
Storage Samsung 850 EVO 256GB + 1TB WD Black 1003
Display(s) ASUS VG236H
Case N/A
Audio Device(s) Onboard
Power Supply EVGA 700 Bronze
Mouse MSI DS100
Keyboard N/A
Software Win 10 x64
#1
Hello

I'm wondering if any of you wonderful people that are using AMD's video recording ReLIVE can help me with a thing.

I currently record my video games with Shadowplay, but looking to build another system - I need to know what kind of settings and stuff ReLIVE records with

Specifically, I need the mediainfo (or equivalent) for an AMD recorded file medinfnvd.jpg - the one I attached is for Shadowplay recorded one.

It shows the codecs/framerate/profile/etc.

I've been trying to get my hands on an untouched/raw AMD ReLIVE recorded file to check mediainfo myself but all I keep finding are some sort of altered file, be it uploaded to a video sharing site or
edited in software. I just need either the mediainfo of a raw file or like a 5-second raw .mp4 to check myself. AVC/H264 prefered but if someone can do both AVC/H264 and HEVC/H265 that would be the best.

Thanks!
 
Joined
Dec 6, 2016
Messages
528 (0.90/day)
Likes
585
#2
Hello,

with max recording bitrate set to 30 Mb/s the following file was produced:

Code:
General
Format                                   : MPEG-4
Format profile                           : Base Media
Codec ID                                 : isom (isom/iso2/avc1/mp41)
File size                                : 218 MiB
Duration                                 : 1 min 0 s
Overall bit rate mode                    : Variable
Overall bit rate                         : 30.4 Mb/s
Writing application                      : Lavf57.71.100

Video
ID                                       : 1
Format                                   : AVC
Format/Info                              : Advanced Video Codec
Format profile                           : Main@L4.2
Format settings                          : CABAC / 4 Ref Frames
Format settings, CABAC                   : Yes
Format settings, RefFrames               : 4 frames
Format settings, GOP                     : M=1, N=30
Codec ID                                 : avc1
Codec ID/Info                            : Advanced Video Coding
Duration                                 : 1 min 0 s
Bit rate                                 : 30.1 Mb/s
Width                                    : 1 920 pixels
Height                                   : 1 080 pixels
Display aspect ratio                     : 16:9
Frame rate mode                          : Variable
Frame rate                               : 60.000 FPS
Minimum frame rate                       : 59.796 FPS
Maximum frame rate                       : 60.015 FPS
Standard                                 : Component
Color space                              : YUV
Chroma subsampling                       : 4:2:0
Bit depth                                : 8 bits
Scan type                                : Progressive
Bits/(Pixel*Frame)                       : 0.242
Stream size                              : 215 MiB (99%)
Color range                              : Limited

Audio
ID                                       : 2
Format                                   : AAC
Format/Info                              : Advanced Audio Codec
Format profile                           : LC
Codec ID                                 : mp4a-40-2
Duration                                 : 1 min 0 s
Bit rate mode                            : Variable
Bit rate                                 : 309 kb/s
Maximum bit rate                         : 320 kb/s
Channel(s)                               : 2 channels
Channel positions                        : Front: L R
Sampling rate                            : 48.0 kHz
Frame rate                               : 46.875 FPS (1024 SPF)
Compression mode                         : Lossy
Stream size                              : 2.21 MiB (1%)
Default                                  : Yes
Alternate group                          : 1
 
Top